<?xml version="1.0" standalone="no"?><!DOCTYPE svg PUBLIC "-//W3C//DTD SVG 1.1//EN" "http://www.w3.org/Graphics/SVG/1.1/DTD/svg11.dtd" ><svg xmlns="http://www.w3.org/2000/svg"><metadata>Generated by Glyphter</metadata><defs><font id="bicc" horiz-adv-x="0"><font-face units-per-em="1024" ascent="1024" descent="0" font-family="bicc" font-weight="normal" /><missing-glyph horiz-adv-x="0" /><glyph unicode="&#x0041;" d="M788.378,360.199C788.378,360.199,788.378,918.817,788.378,918.817C788.378,918.817,235.743,918.817,235.743,918.817C235.743,918.817,235.743,235.2,235.743,235.2C235.743,235.2,629.028,235.2,629.028,235.2C629.028,235.2,627.121,130.018,627.121,130.018C627.121,130.018,183.121,130.018,183.121,130.018C154.05,130.018,130.5,153.568,130.5,182.619C130.5,182.619,130.5,971.419,130.5,971.419C130.5,1000.45,154.05,1024,183.121,1024C183.121,1024,841.04,1024,841.04,1024C870.091,1024,893.641,1000.45,893.641,971.419C893.641,971.419,893.641,307.477,893.641,307.477C893.641,307.477,788.378,360.199,788.378,360.199C788.378,360.199,788.378,360.199,788.378,360.199M669.945,419.265C669.945,419.265,354.156,419.265,354.156,419.265C325.085,419.265,301.535,442.815,301.535,471.846C301.535,500.877,325.085,524.448,354.156,524.448C354.156,524.448,669.985,524.448,669.985,524.448C699.036,524.448,722.587,500.877,722.567,471.846C722.567,442.815,699.016,419.265,669.945,419.265C669.945,419.265,669.945,419.265,669.945,419.265M669.945,734.773C669.945,734.773,354.156,734.773,354.156,734.773C325.085,734.773,301.535,758.323,301.535,787.354C301.535,816.405,325.085,839.935,354.156,839.935C354.156,839.935,669.985,839.935,669.985,839.935C699.036,839.935,722.567,816.405,722.567,787.354C722.567,758.323,699.016,734.773,669.945,734.773C669.945,734.773,669.945,734.773,669.945,734.773M669.945,577.029C669.945,577.029,354.156,577.029,354.156,577.029C325.085,577.029,301.535,600.579,301.535,629.61C301.535,658.641,325.085,682.212,354.156,682.212C354.156,682.212,669.985,682.212,669.985,682.212C699.036,682.212,722.587,658.641,722.567,629.61C722.567,600.559,699.016,577.029,669.945,577.029C669.945,577.029,669.945,577.029,669.945,577.029M753.384,327.875C812.732,327.875,871.175,301.755,871.175,239.276C871.175,181.655,802.071,159.511,787.234,138.691C776.111,123.192,779.826,101.448,749.208,101.448C729.292,101.448,719.555,116.948,719.555,131.122C719.555,183.884,800.665,195.83,800.665,239.276C800.665,263.188,784.002,277.362,756.175,277.362C696.828,277.362,719.997,218.878,675.045,218.878C658.822,218.878,644.889,228.194,644.889,245.901C644.889,289.368,696.828,327.875,753.384,327.875C753.384,327.875,753.384,327.875,753.384,327.875M751.076,72.678C771.915,72.678,789.101,56.296,789.101,36.339C789.101,16.363,771.935,0,751.076,0C730.216,0,713.05,16.363,713.05,36.339C713.05,56.296,730.216,72.678,751.076,72.678C751.076,72.678,751.076,72.678,751.076,72.678" class="bicc-certification"/><glyph unicode="&#x0042;" d="M564.965,170.191C564.965,170.191,564.965,240.586,564.965,240.586C564.965,240.586,0,240.586,0,240.586C0,240.586,0,169.906,0,169.906C0,105.897,51.725,53,115.741,53C115.741,53,621.905,53,621.905,53C617.052,57.414,612.369,61.285,607.949,65.716C580.301,93.45,564.835,131.036,564.965,170.191C564.965,170.191,564.965,170.191,564.965,170.191M564.965,170.191M400.017,596.949C400.017,596.949,481.999,540.664,481.999,540.664C481.999,540.664,564.301,596.949,564.301,596.949C586.809,612.302,604.689,646.948,604.689,674.19C604.689,674.19,604.689,790.5,604.689,790.5C604.689,790.5,482.206,851.077,482.206,851.077C482.206,851.077,359.724,790.655,359.724,790.655C359.724,790.655,359.724,674.19,359.724,674.19C359.724,646.957,377.5,612.302,400.017,596.949C400.017,596.949,400.017,596.949,400.017,596.949M418.474,706.879C424.534,712.879,434.319,712.837,440.32,706.768C440.32,706.768,464.94,681.905,464.94,681.905C464.94,681.905,524.197,741.156,524.197,741.156C530.233,747.19,540.016,747.19,546.052,741.147C552.086,735.111,552.077,725.328,546.043,719.292C546.043,719.292,475.811,649.027,475.811,649.027C472.913,646.121,468.992,644.465,464.887,644.448C464.887,644.448,464.854,644.448,464.854,644.448C460.733,644.474,456.792,646.138,453.914,649.087C453.914,649.087,418.361,684.999,418.361,684.999C412.363,691.077,412.413,700.863,418.474,706.879C418.474,706.879,418.474,706.879,418.474,706.879M418.474,706.879M942.112,971.068C942.112,971.068,941.62,971.068,941.62,971.068C896.231,971.068,858.482,933.147,858.482,887.734C858.482,887.734,858.482,745.965,858.482,745.965C858.482,745.965,1023.999,745.965,1023.999,745.965C1023.999,745.965,1023.999,888.009,1023.999,888.009C1024.207,933.509,987.612,970.629,942.112,971.068C942.112,971.068,942.112,971.068,942.112,971.068M942.112,971.068M237.173,971.068C194.251,971.068,159.318,936.603,159.318,894.328C159.318,894.328,154.758,271.483,154.758,271.483C154.758,271.483,580.413,271.483,580.413,271.483C589.078,271.138,595.912,263.992,595.862,255.31C595.862,255.31,595.862,170.191,595.862,170.191C595.707,105.837,647.587,53.466,711.931,53C711.931,53,712.319,53,712.319,53C776.43,53.466,828.025,105.811,827.585,169.923C827.585,169.923,827.585,887.707,827.585,887.707C827.585,920.182,842.197,948.999,864.154,971.068C864.154,971.068,237.173,971.068,237.173,971.068M328.827,800.294C328.629,806.103,331.811,811.51,336.991,814.165C336.991,814.165,475.336,882.155,475.336,882.155C479.585,884.258,484.568,884.258,488.818,882.155C488.818,882.155,627.414,813.975,627.414,813.975C632.595,811.32,635.775,805.922,635.586,800.104C635.586,800.104,635.586,674.19,635.586,674.19C635.586,636.717,612.716,592.535,581.742,571.424C581.742,571.424,490.983,509.189,490.983,509.189C488.439,507.439,485.422,506.501,482.337,506.501C479.258,506.501,476.259,507.431,473.732,509.189C473.732,509.189,382.706,571.424,382.706,571.424C351.75,592.544,328.827,636.724,328.827,674.19C328.827,674.19,328.827,800.294,328.827,800.294M701.793,342.103C701.793,342.103,278.069,342.103,278.069,342.103C269.535,342.103,262.62,349.017,262.62,357.551C262.62,366.088,269.535,373,278.069,373C278.069,373,701.793,373,701.793,373C710.327,373,717.241,366.088,717.241,357.551C717.241,349.017,710.327,342.103,701.793,342.103C701.793,342.103,701.793,342.103,701.793,342.103M701.793,423.758C701.793,423.758,278.069,423.758,278.069,423.758C269.535,423.758,262.62,430.673,262.62,439.207C262.62,447.743,269.535,454.655,278.069,454.655C278.069,454.655,701.793,454.655,701.793,454.655C710.327,454.655,717.241,447.743,717.241,439.207C717.241,430.673,710.327,423.758,701.793,423.758C701.793,423.758,701.793,423.758,701.793,423.758M701.793,423.758" class="bicc-certificate"/><glyph unicode="&#x0043;" d="M1024,792.601C1024,792.601,1024,480.193,1024,480.193C1024,480.193,957.659,467.013,943.996,465.286C930.363,463.56,887.545,449.619,856.517,479.681C808.667,525.907,638.654,696.301,638.654,696.301C638.654,696.301,609.353,725.295,562.278,700.236C519.08,677.284,455.022,643.653,428.281,630.56C377.71,603.424,335.784,646.476,335.784,679.259C335.784,704.683,351.539,721.945,374.038,734.642C435.039,771.916,563.61,844.649,617.165,873.321C649.713,890.773,673.163,892.265,717.853,854.319C772.886,807.668,821.862,765.143,821.862,765.143C821.862,765.143,837.837,751.714,863.32,757.126C925.872,770.453,1024,792.601,1024,792.601C1024,792.601,1024,792.601,1024,792.601M347.312,263.251C355.533,284.565,352.783,308.41,336.998,324.764C322.823,339.408,302.109,343.255,282.361,338.691C287.89,358.439,284.833,379.446,270.57,394.265C256.351,408.864,235.681,412.799,215.932,408.191C221.418,427.91,218.375,448.917,204.112,463.692C181.76,486.79,143.126,485.81,117.731,461.41C92.482,436.995,76.303,392.743,98.845,366.69C121.344,340.783,147.193,356.538,166.912,361.072C161.426,341.353,144.998,323.024,165.23,297.233C185.446,271.414,213.577,287.081,233.311,291.557C227.811,271.926,212.1,251.753,231.556,227.835C251.187,203.845,283.341,216.63,304.581,223.271C296.375,202.045,278.835,179.152,301.378,153.493C323.877,127.644,375.881,139.611,401.291,164.04C426.628,188.455,429.056,227.163,406.777,250.334C391.387,266.235,368.45,269.936,347.312,263.251C347.312,263.251,347.312,263.251,347.312,263.251M810.818,425.775C627.185,610.87,713.552,523.771,614.736,623.582C614.736,623.582,585.04,653.395,545.894,636.075C518.407,623.948,483.035,607.403,456.411,594.779C427.169,579.316,406.118,574.533,396.229,574.591C339.675,574.971,293.8,620.773,293.8,677.723C293.8,714.645,313.256,746.813,342.279,765.07C383.078,793.522,477.008,843.874,477.008,843.874C477.008,843.874,448.395,880.416,385.712,880.416C323.043,880.416,192.132,793.976,192.132,793.976C192.132,793.976,154.99,770,102.049,791.591C102.049,791.591,0,827.402,0,827.402C0,827.402,0,469.924,0,469.924C0,469.924,29.14,461.41,55.325,450.643C61.235,467.642,70.773,483.338,84.012,496.299C127.444,537.99,199.431,538.429,238.958,497.411C250.865,484.947,259.174,470.07,263.402,453.627C279.333,448.683,293.756,439.906,305.342,427.867C317.279,415.476,325.559,400.526,329.845,384.171C345.746,379.212,360.141,370.405,371.771,358.366C384.878,344.747,393.596,328.304,397.678,310.487C414.296,305.616,429.319,296.531,441.417,284.053C465.174,259.477,473.6,226.109,468.495,193.941C468.539,193.941,468.612,193.941,468.656,193.868C469.036,193.356,483.372,177.25,492.295,168.18C509.806,150.523,538.405,150.523,555.959,168.18C573.411,185.837,573.484,214.597,555.959,232.341C555.33,232.97,492.793,298.901,497.825,304.006C502.828,309.083,582.495,225.524,583.987,224.003C601.468,206.375,630.038,206.375,647.607,224.003C665.117,241.659,665.088,270.419,647.607,288.12C646.744,288.939,643.16,292.406,641.829,293.781C641.829,293.781,562.834,364.715,568.847,370.771C574.932,376.871,673.046,284.58,673.207,284.58C690.849,268.561,718.014,268.678,734.983,285.794C751.499,302.441,751.85,328.743,737.207,346.488C736.9,347.439,662.426,425.877,668.248,431.772C674.143,437.755,747.827,361.277,747.988,361.116C765.425,343.489,794.039,343.489,811.608,361.116C829.089,378.744,829.089,407.533,811.608,425.321C811.359,425.467,811.052,425.628,810.818,425.775C810.818,425.775,810.818,425.775,810.818,425.775" class="bicc-hand-shake"/><glyph unicode="&#x0044;" d="M1013.327,176.709C982.75,146.246,952.23,115.783,921.653,85.149C921.653,85.149,685.166,321.749,685.166,321.749C690.566,325.5,695.567,329.593,700.227,334.196C700.227,334.196,737.624,371.707,737.624,371.707C737.624,371.707,778.09,412.116,778.09,412.116C778.09,412.116,778.147,412.116,778.147,412.116C792.242,426.267,815.373,426.267,829.525,412.286C829.525,412.286,1013.724,227.973,1013.724,227.973C1027.876,213.878,1027.535,190.917,1013.327,176.709C1013.327,176.709,1013.327,176.709,1013.327,176.709M546.434,50.708C492.044,77.135,442.485,111.463,395.54,147.212C348.822,182.733,305.003,221.949,263.798,263.267C222.707,304.529,183.776,348.689,148.198,395.293C112.563,442.238,78.065,491.57,51.523,546.358C-10.369,672.871,-17.587,816.831,38.849,874.859C38.849,874.859,281.644,632.177,281.644,632.177C267.379,593.701,272.721,547.949,300.002,516.463C333.42,477.532,368.657,440.533,404.576,404.329C440.609,368.24,477.836,332.889,516.483,299.584C548.196,272.417,593.891,267.132,632.368,281.397C632.368,281.397,875.163,38.602,875.163,38.602C817.135,-17.891,673.061,-11.128,546.434,50.708C546.434,50.708,546.434,50.708,546.434,50.708M371.84,737.491C371.84,737.491,334.33,699.98,334.33,699.98C329.726,695.263,325.577,690.319,321.94,685.033C321.94,685.033,85.453,921.577,85.453,921.577C115.973,952.096,146.436,982.673,177.013,1013.25C191.164,1027.402,214.012,1027.629,228.163,1013.648C228.163,1013.648,412.42,829.335,412.42,829.335C426.514,815.24,426.514,792.052,412.249,777.843C412.249,777.843,371.84,737.491,371.84,737.491C371.84,737.491,371.84,737.491,371.84,737.491" class="bicc-contact"/><glyph unicode="&#x0045;" d="M512,874C462.374,874,422,833.624,422,784C422,734.374,462.376,694,512,694C561.626,694,602,734.376,602,784C602,833.626,561.624,874,512,874C512,874,512,874,512,874M512,874M512,1024C379.664,1024,272,916.336,272,784C272,738.618,284.742,694.406,308.86,656.148C308.86,656.148,512,332,512,332C512,332,715.14,656.148,715.14,656.148C739.258,694.406,752,738.618,752,784C752,916.336,644.336,1024,512,1024C512,1024,512,1024,512,1024M512,634C429.296,634,362,701.296,362,784C362,866.704,429.296,934,512,934C594.704,934,662,866.704,662,784C662,701.296,594.704,634,512,634C512,634,512,634,512,634M512,634M365.992,0C365.992,0,657.906,0,657.906,0C657.906,0,634.836,182,634.836,182C634.836,182,388.484,182,388.484,182C388.484,182,365.992,0,365.992,0M365.992,0M395.984,242C395.984,242,497.812,242,497.812,242C497.812,242,412.836,376.774,412.836,376.774C412.836,376.774,395.984,242,395.984,242M395.984,242M687.656,242C687.656,242,924.008,242,924.008,242C924.008,242,849.008,422,849.008,422C849.008,422,664.57,422,664.57,422C664.57,422,687.656,242,687.656,242M687.656,242M99.992,242C99.992,242,335.524,242,335.524,242C335.524,242,358.024,422,358.024,422C358.024,422,174.992,422,174.992,422C174.992,422,99.992,242,99.992,242M99.992,242M526.188,242C526.188,242,627.14,242,627.14,242C627.14,242,610.086,375.046,610.086,375.046C610.086,375.046,526.188,242,526.188,242M526.188,242M328.024,182C328.024,182,74.992,182,74.992,182C74.992,182,0,0,0,0C0,0,305.532,0,305.532,0C305.532,0,328.024,182,328.024,182M328.024,182M949.008,182C949.008,182,695.344,182,695.344,182C695.344,182,718.422,0,718.422,0C718.422,0,1024,0,1024,0C1024,0,949.008,182,949.008,182M949.008,182" class="bicc-map"/><glyph unicode="&#x0046;" d="M874.518,874.01C674.497,1073.997,350.508,1073.997,150.486,874.01C-42.086,681.474,-49.147,374.08,128.877,173.105C128.877,173.105,133.926,168.691,133.926,168.691C114.683,126.815,81.246,75.477,28.531,49.455C10.983,41.016,15.008,14.994,34.286,11.957C92.051,2.848,174.813,12.981,251.856,71.417C251.856,71.417,252.88,70.393,252.88,70.393C449.159,-45.101,705.568,-18.443,874.165,150.119C1074.505,350.105,1074.505,674.059,874.518,874.01C874.518,874.01,874.518,874.01,874.518,874.01M534.287,828.074C580.223,827.756,617.05,790.259,616.732,743.652C616.379,697.363,578.882,659.865,533.97,660.183C487.327,660.536,449.83,698.704,450.183,744.994C450.501,791.248,487.998,828.427,534.287,828.074C534.287,828.074,534.287,828.074,534.287,828.074M652.888,265.648C651.193,258.551,646.462,251.136,641.377,245.734C610.977,214.98,574.821,196.726,531.251,196.055C510.984,195.737,490.364,196.408,470.45,199.445C436.978,204.176,394.749,245.381,400.857,289.657C404.882,319.705,409.614,349.752,414.698,379.835C423.49,431.844,432.952,484.206,442.062,536.215C442.733,539.605,442.733,542.995,442.733,546.349C442.733,568.311,435.989,575.761,414.345,578.797C405.235,580.139,395.42,580.81,386.981,583.846C376.177,587.554,371.445,596.028,372.469,604.784C373.493,613.929,379.213,619.649,391.041,622.015C397.115,623.392,403.541,623.392,409.967,623.392C435.636,623.392,460.987,623.392,486.656,623.392C513.667,623.392,540.713,623.392,568.077,623.392C587.674,623.392,599.149,614.247,599.82,594.651C600.173,578.444,597.454,562.238,594.417,546.031C583.966,486.572,572.809,427.113,562.004,367.336C558.297,347.74,554.237,327.826,552.189,308.23C551.2,298.767,552.542,288.634,554.907,279.489C557.944,267.025,567.407,260.246,579.906,261.587C590.392,262.964,600.844,266.672,610.977,270.379C619.098,273.416,626.195,279.171,634.634,282.207C645.791,286.586,655.925,278.147,652.888,265.648C652.888,265.648,652.888,265.648,652.888,265.648" class="bicc-info"/><glyph unicode="&#x0047;" d="M765.12,557.248C759.936,568.704,748.544,576,736,576C736,576,608,576,608,576C608,576,608,992,608,992C608,1009.664,593.664,1024,576,1024C576,1024,448,1024,448,1024C430.336,1024,416,1009.664,416,992C416,992,416,576,416,576C416,576,288,576,288,576C275.456,576,264.064,568.64,258.88,557.248C253.632,545.792,255.68,532.416,263.936,522.944C263.936,522.944,487.936,266.944,487.936,266.944C494.016,259.968,502.784,256,512,256C521.216,256,529.984,260.032,536.064,266.944C536.064,266.944,760.064,522.944,760.064,522.944C768.384,532.352,770.304,545.792,765.12,557.248C765.12,557.248,765.12,557.248,765.12,557.248M864,320C864,320,864,128,864,128C864,128,160,128,160,128C160,128,160,320,160,320C160,320,32,320,32,320C32,320,32,64,32,64C32,28.608,60.672,0,96,0C96,0,928,0,928,0C963.392,0,992,28.608,992,64C992,64,992,320,992,320C992,320,864,320,864,320C864,320,864,320,864,320" class="bicc-download"/><glyph unicode="&#x0048;" d="M488.404,420.761C495.24,413.925,503.114,410.515,512.005,410.515C520.897,410.515,528.756,413.922,535.588,420.761C535.588,420.761,1013.768,898.919,1013.768,898.919C1020.604,905.758,1024,913.629,1024,922.52C1024,931.411,1020.582,939.286,1013.768,946.121C1013.768,946.121,962.469,997.435,962.469,997.435C955.634,1004.274,947.759,1007.688,938.857,1007.688C929.977,1007.688,922.106,1004.274,915.271,997.435C915.271,997.435,512.005,594.184,512.005,594.184C512.005,594.184,108.758,997.435,108.758,997.435C101.919,1004.274,94.048,1007.688,85.157,1007.688C76.262,1007.688,68.391,1004.274,61.556,997.435C61.556,997.435,10.264,946.121,10.264,946.121C3.414,939.286,0,931.426,0,922.52C0,913.615,3.425,905.755,10.264,898.919C10.264,898.919,488.404,420.761,488.404,420.761C488.404,420.761,488.404,420.761,488.404,420.761M962.469,603.416C955.634,610.255,947.759,613.67,938.857,613.67C929.977,613.67,922.106,610.255,915.271,603.416C915.271,603.416,512.005,200.169,512.005,200.169C512.005,200.169,108.758,603.427,108.758,603.427C101.919,610.266,94.048,613.68,85.157,613.68C76.262,613.68,68.391,610.266,61.556,603.427C61.556,603.427,10.264,552.117,10.264,552.117C3.414,545.278,0,537.407,0,528.52C0,519.629,3.425,511.754,10.264,504.908C10.264,504.908,488.404,26.757,488.404,26.757C495.24,19.918,503.114,16.5,512.005,16.5C520.897,16.5,528.756,19.918,535.588,26.757C535.588,26.757,1013.768,504.908,1013.768,504.908C1020.604,511.747,1024,519.618,1024,528.502C1024,537.393,1020.582,545.253,1013.768,552.103C1013.768,552.103,962.469,603.416,962.469,603.416C962.469,603.416,962.469,603.416,962.469,603.416" class="bicc-down-arrow"/><glyph unicode="&#x0049;" d="M1009.262,106.005C1009.262,106.005,777.349,328.767,777.349,328.767C834.352,399.343,868.377,487.833,868.377,583.885C868.377,813.874,673.603,1000.967,434.155,1000.967C194.775,1000.981,0,813.887,0,583.885C0,353.882,194.775,166.776,434.169,166.776C537.434,166.776,632.35,201.629,706.96,259.674C706.96,259.674,938.085,37.674,938.085,37.674C947.864,28.229,960.782,23.5,973.646,23.5C986.565,23.5,999.429,28.229,1009.262,37.674C1028.913,56.577,1028.913,87.116,1009.262,106.005C1009.262,106.005,1009.262,106.005,1009.262,106.005M100.674,583.885C100.674,760.531,250.295,904.221,434.169,904.221C618.096,904.221,767.717,760.531,767.717,583.885C767.717,407.238,618.096,263.455,434.169,263.455C250.295,263.455,100.674,407.252,100.674,583.885C100.674,583.885,100.674,583.885,100.674,583.885" class="bicc-search"/><glyph unicode="&#x004a;" d="M997.433,368.341C997.433,368.341,596.677,767.109,596.677,767.109C549.842,813.699,474.165,813.699,427.352,767.109C427.352,767.109,26.574,368.341,26.574,368.341C0.679,342.557,-7.112,307.911,6.84,274.09C20.77,240.337,53.698,222.5,90.219,222.5C90.219,222.5,933.743,222.5,933.743,222.5C970.309,222.5,1003.214,240.337,1017.144,274.112C1031.119,307.911,1023.328,342.535,997.433,368.341C997.433,368.341,997.433,368.341,997.433,368.341" class="bicc-arrow-up"/><glyph unicode="&#x004b;" d="M1004.992,781.014C992.334,793.683,977.329,800.012,959.992,800.012C959.992,800.012,64.005,800.012,64.005,800.012C46.66,800.012,31.666,793.683,18.998,781.014C6.329,768.332,0,753.337,0,736.004C0,718.673,6.329,703.679,18.998,691.007C18.998,691.007,466.993,243.012,466.993,243.012C479.675,230.343,494.67,224,512,224C529.33,224,544.339,230.343,556.997,243.012C556.997,243.012,1004.992,691.01,1004.992,691.01C1017.646,703.679,1024,718.673,1024,736.007C1024,753.337,1017.646,768.332,1004.992,781.014C1004.992,781.014,1004.992,781.014,1004.992,781.014" class="bicc-arrow-down"/><glyph unicode="&#x004c;" d="M741.717,598.032C741.717,598.032,741.717,817.526,741.717,817.526C741.717,931.376,655.323,1024,549.134,1024C549.134,1024,475.221,1024,475.221,1024C369.029,1024,282.635,931.376,282.635,817.526C282.635,817.526,282.635,598.035,282.635,598.035C217.65,534.874,177,445.296,177,346.09C177.003,155.254,327.362,0,512.178,0C696.994,0,847.352,155.254,847.352,346.086C847.352,445.293,806.706,534.87,741.717,598.032C741.717,598.032,741.717,598.032,741.717,598.032M346.638,647.027C346.638,647.027,346.638,817.523,346.638,817.523C346.638,896.086,404.318,959.997,475.224,959.997C475.224,959.997,549.138,959.997,549.138,959.997C620.04,959.997,677.723,896.083,677.723,817.523C677.723,817.523,677.723,647.027,677.723,647.027C668.987,652.15,660.034,656.829,650.907,661.114C650.581,661.267,650.258,661.43,649.931,661.584C648.654,662.179,647.368,662.746,646.085,663.325C644.178,664.186,642.261,665.034,640.338,665.859C639.435,666.243,638.536,666.627,637.63,667.005C634.779,668.198,631.912,669.354,629.026,670.467C628.962,670.493,628.898,670.518,628.837,670.541C599.298,681.901,567.803,689.066,535.032,691.354C534.274,691.408,533.515,691.456,532.757,691.504C530.133,691.67,527.499,691.802,524.859,691.904C523.992,691.939,523.125,691.981,522.254,692.006C518.907,692.109,515.554,692.176,512.184,692.176C508.814,692.176,505.461,692.109,502.114,692.006C501.243,691.981,500.376,691.939,499.509,691.904C496.869,691.802,494.235,691.67,491.611,691.504C490.853,691.456,490.094,691.408,489.336,691.354C456.565,689.066,425.07,681.901,395.531,670.541C395.467,670.515,395.403,670.49,395.342,670.467C392.453,669.354,389.586,668.198,386.738,667.005C385.832,666.627,384.933,666.246,384.03,665.859C382.104,665.034,380.19,664.186,378.283,663.325C377,662.749,375.714,662.179,374.437,661.584C374.11,661.43,373.787,661.267,373.461,661.114C364.328,656.832,355.371,652.15,346.638,647.027C346.638,647.027,346.638,647.027,346.638,647.027M512.178,64C362.651,64,241.003,190.544,241.003,346.086C241.003,451.536,296.926,543.642,379.531,592.042C380.818,592.79,382.098,593.552,383.394,594.278C384.808,595.075,386.235,595.853,387.666,596.627C390.174,597.978,392.696,599.302,395.243,600.57C396.05,600.973,396.866,601.36,397.678,601.754C425.938,615.446,456.373,624.051,487.659,627.008C487.931,627.034,488.206,627.059,488.482,627.085C492.187,627.424,495.906,627.683,499.63,627.862C500.062,627.882,500.501,627.894,500.933,627.914C504.674,628.077,508.424,628.176,512.181,628.176C515.938,628.176,519.688,628.077,523.429,627.914C523.864,627.894,524.299,627.882,524.731,627.862C528.459,627.683,532.174,627.424,535.88,627.085C536.155,627.059,536.427,627.034,536.702,627.008C567.989,624.051,598.424,615.446,626.683,601.754C627.496,601.36,628.312,600.973,629.118,600.57C631.666,599.302,634.184,597.978,636.696,596.627C638.126,595.856,639.554,595.078,640.968,594.278C642.264,593.552,643.547,592.79,644.83,592.042C727.435,543.642,783.358,451.536,783.358,346.086C783.352,190.544,661.704,64,512.178,64C512.178,64,512.178,64,512.178,64M606.59,398.198C606.59,450.272,564.238,492.64,512.174,492.64C460.117,492.64,417.765,450.275,417.765,398.198C417.765,371.581,428.811,346.806,447.662,329.216C447.662,329.216,425.022,227.683,425.022,227.683C424.514,225.395,424.258,223.062,424.258,220.717C424.258,192.982,451.419,172.07,487.438,172.07C487.438,172.07,536.933,172.07,536.933,172.07C572.946,172.07,600.101,192.982,600.101,220.717C600.101,223.059,599.845,225.395,599.333,227.683C599.333,227.683,576.69,329.216,576.69,329.216C595.541,346.81,606.59,371.581,606.59,398.198C606.59,398.198,606.59,398.198,606.59,398.198M492.466,236.074C492.466,236.074,512.174,324.464,512.174,324.464C512.174,324.464,531.89,236.074,531.89,236.074C531.89,236.074,492.466,236.074,492.466,236.074C492.466,236.074,492.466,236.074,492.466,236.074M526.13,371.155C519.909,367.923,515.112,362.864,512.174,356.899C509.237,362.864,504.44,367.923,498.219,371.155C488.072,376.426,481.765,386.79,481.765,398.198C481.765,414.982,495.406,428.64,512.174,428.64C528.946,428.64,542.59,414.982,542.59,398.198C542.59,386.794,536.283,376.432,526.13,371.155C526.13,371.155,526.13,371.155,526.13,371.155" class="bicc-lock"/><glyph unicode="&#x004d;" d="M874.04,362.04C818.274,417.804,751.898,459.086,679.478,484.076C757.042,537.498,808,626.904,808,728C808,891.214,675.214,1024,512,1024C348.786,1024,216,891.214,216,728C216,626.904,266.958,537.498,344.524,484.076C272.104,459.086,205.728,417.804,149.962,362.04C53.258,265.334,0,136.76,0,0C0,0,80,0,80,0C80,238.206,273.794,432,512,432C750.206,432,944,238.206,944,0C944,0,1024,0,1024,0C1024,136.76,970.742,265.334,874.04,362.04C874.04,362.04,874.04,362.04,874.04,362.04M512,512C392.898,512,296,608.896,296,728C296,847.104,392.898,944,512,944C631.102,944,728,847.104,728,728C728,608.896,631.102,512,512,512C512,512,512,512,512,512" class="bicc-user"/><glyph unicode="&#x004e;" d="M774.574,532.913C774.574,532.913,291.518,1015.97,291.518,1015.97C280.144,1027.343,261.904,1027.343,250.53,1015.97C239.157,1004.596,239.157,986.356,250.53,974.982C250.53,974.982,712.985,512.527,712.985,512.527C712.985,512.527,250.53,50.072,250.53,50.072C239.157,38.698,239.157,20.457,250.53,9.084C256.11,3.504,263.621,0.5,270.917,0.5C278.213,0.5,285.724,3.29,291.304,9.084C291.304,9.084,774.36,492.14,774.36,492.14C785.733,503.299,785.733,521.754,774.574,532.913C774.574,532.913,774.574,532.913,774.574,532.913" class="bicc-next"/><glyph unicode="&#x004f;" d="M947.475,746.663C947.475,746.663,947.443,747.459,947.443,747.459C946.999,757.295,946.701,767.703,946.521,779.281C945.685,835.741,900.803,882.445,844.335,885.601C726.602,892.171,635.522,930.561,557.702,1006.413C557.702,1006.413,557.038,1007.045,557.038,1007.045C531.656,1030.318,493.366,1030.318,467.976,1007.045C467.976,1007.045,467.312,1006.413,467.312,1006.413C389.492,930.561,298.414,892.171,180.68,885.593C124.218,882.445,79.329,835.741,78.493,779.273C78.321,767.773,78.017,757.367,77.571,747.459C77.571,747.459,77.523,745.609,77.523,745.609C75.235,625.553,72.391,476.139,122.374,340.524C149.858,265.946,191.484,201.118,246.086,147.828C308.272,87.14,389.726,38.96,488.18,4.632C491.382,3.516,494.71,2.61,498.102,1.93C502.882,0.976,507.694,0.5,512.508,0.5C517.32,0.5,522.14,0.976,526.914,1.93C530.304,2.61,533.656,3.524,536.874,4.648C635.21,39.04,716.578,87.242,778.71,147.922C833.287,201.226,874.913,266.07,902.421,340.664C952.593,476.687,949.757,626.381,947.475,746.663C947.475,746.663,947.475,746.663,947.475,746.663M846.045,361.453C793.328,218.516,685.71,120.352,517.046,61.368C516.444,61.164,515.804,60.984,515.14,60.852C513.398,60.508,511.624,60.508,509.858,60.86C509.202,60.992,508.562,61.164,507.968,61.368C339.124,120.242,231.436,218.352,178.758,361.295C132.686,486.303,135.296,623.459,137.602,744.459C137.602,744.459,137.616,745.131,137.616,745.131C138.086,755.531,138.398,766.421,138.57,778.389C138.944,803.459,158.914,824.203,184.03,825.601C250.656,829.319,309.186,842.195,362.968,864.959C416.68,887.695,464.382,919.741,508.788,962.929C511.046,964.835,513.976,964.843,516.226,962.929C560.64,919.741,608.344,887.695,662.046,864.959C715.828,842.195,774.358,829.319,840.991,825.601C866.107,824.203,886.077,803.459,886.443,778.381C886.623,766.351,886.935,755.459,887.405,745.131C889.701,623.991,892.249,486.725,846.045,361.453C846.045,361.453,846.045,361.453,846.045,361.453M846.045,361.453M512.492,767.679C371.772,767.679,257.296,653.195,257.296,512.483C257.296,371.765,371.772,257.282,512.492,257.282C653.202,257.282,767.686,371.765,767.686,512.483C767.686,653.195,653.202,767.679,512.492,767.679C512.492,767.679,512.492,767.679,512.492,767.679M512.492,317.374C404.906,317.374,317.382,404.897,317.382,512.483C317.382,620.069,404.906,707.593,512.492,707.593C620.07,707.593,707.594,620.069,707.594,512.483C707.594,404.897,620.07,317.374,512.492,317.374C512.492,317.374,512.492,317.374,512.492,317.374M512.492,317.374M585.836,591.709C585.836,591.709,467.304,473.179,467.304,473.179C467.304,473.179,435.132,505.351,435.132,505.351C423.398,517.085,404.374,517.085,392.64,505.351C380.914,493.617,380.914,474.593,392.64,462.867C392.64,462.867,446.062,409.445,446.062,409.445C451.93,403.577,459.616,400.647,467.304,400.647C474.992,400.647,482.68,403.577,488.546,409.445C488.546,409.445,628.328,549.225,628.328,549.225C640.054,560.959,640.054,579.983,628.328,591.709C616.594,603.453,597.57,603.453,585.836,591.709C585.836,591.709,585.836,591.709,585.836,591.709M585.836,591.709" class="bicc-security"/><glyph unicode="&#x0050;" d="M512,1024C229.691,1024,0,794.329,0,512C0,229.671,229.691,0,512,0C794.309,0,1024,229.671,1024,512C1024,794.329,794.309,1024,512,1024C512,1024,512,1024,512,1024M512,39.385C251.412,39.385,39.385,251.412,39.385,512C39.385,772.588,251.412,984.615,512,984.615C772.588,984.615,984.615,772.588,984.615,512C984.615,251.412,772.588,39.385,512,39.385C512,39.385,512,39.385,512,39.385M753.27,721.999C753.27,721.999,450.619,381.519,450.619,381.519C450.619,381.519,268.288,527.38,268.288,527.38C259.82,534.174,247.394,532.775,240.62,524.308C233.826,515.801,235.205,503.414,243.692,496.62C243.692,496.62,440.615,339.082,440.615,339.082C444.239,336.187,448.591,334.769,452.923,334.769C458.358,334.769,463.774,337.014,467.653,341.386C467.653,341.386,782.73,695.847,782.73,695.847C789.957,703.961,789.228,716.426,781.095,723.633C772.943,730.88,760.517,730.151,753.27,721.999C753.27,721.999,753.27,721.999,753.27,721.999" class="bicc-success"/><glyph unicode="&#x0051;" d="M512,1024C229.691,1024,0,794.329,0,512C0,229.671,229.691,0,512,0C794.309,0,1024,229.671,1024,512C1024,794.329,794.309,1024,512,1024C512,1024,512,1024,512,1024M512,39.385C251.412,39.385,39.385,251.412,39.385,512C39.385,772.588,251.412,984.615,512,984.615C772.588,984.615,984.615,772.588,984.615,512C984.615,251.412,772.588,39.385,512,39.385C512,39.385,512,39.385,512,39.385M703.153,703.153C695.454,710.853,683.008,710.853,675.308,703.153C675.308,703.153,512,539.845,512,539.845C512,539.845,348.692,703.153,348.692,703.153C340.992,710.853,328.546,710.853,320.847,703.153C313.147,695.454,313.147,683.008,320.847,675.308C320.847,675.308,484.155,512,484.155,512C484.155,512,320.847,348.692,320.847,348.692C313.147,340.992,313.147,328.546,320.847,320.847C324.687,317.007,329.728,315.077,334.769,315.077C339.81,315.077,344.852,317.007,348.692,320.847C348.692,320.847,512,484.155,512,484.155C512,484.155,675.308,320.847,675.308,320.847C679.148,317.007,684.19,315.077,689.231,315.077C694.272,315.077,699.313,317.007,703.153,320.847C710.853,328.546,710.853,340.992,703.153,348.692C703.153,348.692,539.845,512,539.845,512C539.845,512,703.153,675.308,703.153,675.308C710.853,683.008,710.853,695.454,703.153,703.153C703.153,703.153,703.153,703.153,703.153,703.153" class="bicc-error"/><glyph unicode="&#x0052;" d="M512,1024C228.994,1024,0,794.986,0,512C0,228.994,229.014,0,512,0C795.006,0,1024,229.014,1024,512C1024,795.006,794.986,1024,512,1024C512,1024,512,1024,512,1024M512,80C273.214,80,80,273.23,80,512C80,750.786,273.23,944,512,944C750.786,944,944,750.77,944,512C944,273.214,750.77,80,512,80C512,80,512,80,512,80M512,766.246C489.908,766.246,472,748.338,472,726.246C472,726.246,472,468.66,472,468.66C472,446.568,489.908,428.66,512,428.66C534.092,428.66,552,446.568,552,468.66C552,468.66,552,726.246,552,726.246C552,748.338,534.092,766.246,512,766.246C512,766.246,512,766.246,512,766.246M458,325.68C458,284.11,503,258.13,539,278.914C555.708,288.56,566,306.388,566,325.68C566,367.25,521,393.23,485,372.446C468.292,362.8,458,344.972,458,325.68" class="bicc-warning"/><glyph unicode="&#x0053;" d="M241.463,460.086C241.463,460.086,739.785,8.391,739.785,8.391C745.978,2.765,753.754,0,761.515,0C770.326,0,779.089,3.589,785.475,10.622C797.456,23.847,796.469,44.3,783.228,56.28C783.228,56.28,303.984,490.707,303.984,490.707C303.984,490.707,738.395,969.968,738.395,969.968C750.391,983.193,749.389,1003.646,736.148,1015.626C722.939,1027.622,702.486,1026.604,690.49,1013.379C690.49,1013.379,238.779,515.04,238.779,515.04C231.681,507.199,229.24,496.835,231.099,487.183C230.145,477.353,233.573,467.216,241.463,460.086C241.463,460.086,241.463,460.086,241.463,460.086" class="bicc-previous"/><glyph unicode="&#x0054;" d="M994.623,402.344C979.8,402.344,967.785,390.329,967.785,375.505C967.785,375.505,967.785,137.195,967.785,137.195C967.731,92.752,931.718,56.732,887.268,56.678C887.268,56.678,134.195,56.678,134.195,56.678C89.744,56.732,53.732,92.752,53.678,137.195C53.678,137.195,53.678,836.59,53.678,836.59C53.732,881.041,89.744,917.053,134.195,917.107C134.195,917.107,372.495,917.107,372.495,917.107C387.32,917.107,399.334,929.12,399.334,943.946C399.334,958.769,387.32,970.785,372.495,970.785C372.495,970.785,134.195,970.785,134.195,970.785C60.116,970.701,0.083,910.668,0,836.59C0,836.59,0,137.195,0,137.195C0.083,63.114,60.116,3.083,134.195,3C134.195,3,887.268,3,887.268,3C961.349,3.083,1021.379,63.114,1021.462,137.195C1021.462,137.195,1021.462,375.495,1021.462,375.495C1021.462,390.32,1009.447,402.344,994.623,402.344C994.623,402.344,994.623,402.344,994.623,402.344M994.623,402.344M419.672,543.573C419.672,543.573,811.553,935.465,811.553,935.465C811.553,935.465,937.937,809.08,937.937,809.08C937.937,809.08,546.057,417.189,546.057,417.189C546.057,417.189,419.672,543.573,419.672,543.573M419.672,543.573M355.731,353.248C355.731,353.248,495.398,391.933,495.398,391.933C495.398,391.933,394.417,492.915,394.417,492.915C394.417,492.915,355.731,353.248,355.731,353.248M355.731,353.248M972.879,1001.891C946.66,1028.048,904.209,1028.048,877.99,1001.891C877.99,1001.891,849.524,973.425,849.524,973.425C849.524,973.425,975.909,847.041,975.909,847.041C975.909,847.041,1004.374,875.506,1004.374,875.506C1030.542,901.725,1030.542,944.176,1004.374,970.395C1004.374,970.395,972.879,1001.891,972.879,1001.891M972.879,1001.891" class="bicc-edit"/><glyph unicode="&#x0055;" d="M1024,512C1024,794.307,794.307,1024,512,1024C229.693,1024,0,794.307,0,512C0,362.887,64.121,228.482,166.186,134.833C166.186,134.833,165.702,134.405,165.702,134.405C165.702,134.405,182.309,120.404,182.309,120.404C183.389,119.491,184.562,118.747,185.642,117.853C194.467,110.536,203.608,103.592,212.918,96.87C215.934,94.692,218.95,92.514,222.022,90.391C231.964,83.54,242.167,77.042,252.593,70.879C254.864,69.539,257.154,68.236,259.444,66.932C270.857,60.435,282.512,54.309,294.447,48.687C295.322,48.277,296.215,47.905,297.09,47.495C335.984,29.417,377.502,16.142,420.92,8.304C422.056,8.099,423.191,7.894,424.346,7.689C437.825,5.362,451.454,3.5,465.25,2.253C466.925,2.104,468.601,2.011,470.295,1.862C484.035,0.726,497.925,0,512,0C525.945,0,539.704,0.726,553.37,1.825C555.101,1.974,556.833,2.067,558.564,2.216C572.248,3.463,585.765,5.269,599.114,7.559C600.269,7.764,601.442,7.969,602.596,8.192C645.362,15.863,686.285,28.84,724.675,46.452C726.09,47.104,727.524,47.718,728.939,48.389C740.426,53.788,751.653,59.615,762.657,65.815C765.393,67.361,768.112,68.925,770.83,70.526C780.847,76.428,790.696,82.59,800.265,89.144C803.71,91.49,807.08,93.966,810.487,96.424C818.66,102.307,826.685,108.376,834.486,114.725C836.217,116.122,838.079,117.332,839.773,118.765C839.773,118.765,856.809,132.99,856.809,132.99C856.809,132.99,856.306,133.418,856.306,133.418C959.265,227.105,1024,362.124,1024,512C1024,512,1024,512,1024,512M37.236,512C37.236,773.79,250.21,986.764,512,986.764C773.79,986.764,986.764,773.79,986.764,512C986.764,370.93,924.858,244.103,826.852,157.082C821.378,160.861,815.867,164.25,810.226,167.08C810.226,167.08,652.586,245.89,652.586,245.89C638.436,252.965,629.648,267.19,629.648,282.996C629.648,282.996,629.648,338.05,629.648,338.05C633.297,342.556,637.151,347.657,641.136,353.261C661.541,382.082,677.907,414.143,689.841,448.642C713.43,459.85,728.66,483.347,728.66,509.878C728.66,509.878,728.66,575.879,728.66,575.879C728.66,592.021,722.739,607.679,712.145,619.985C712.145,619.985,712.145,706.877,712.145,706.877C713.114,716.558,716.539,771.072,677.087,816.054C642.774,855.226,587.236,875.055,512,875.055C436.764,875.055,381.226,855.226,346.913,816.072C307.461,771.091,310.886,716.539,311.855,706.895C311.855,706.895,311.855,620.004,311.855,620.004C301.279,607.697,295.34,592.04,295.34,575.898C295.34,575.898,295.34,509.896,295.34,509.896C295.34,489.398,304.538,470.277,320.289,457.374C335.369,398.299,366.406,353.578,377.875,338.423C377.875,338.423,377.875,284.542,377.875,284.542C377.875,269.349,369.59,255.386,356.24,248.087C356.24,248.087,209.026,167.787,209.026,167.787C204.335,165.236,199.68,162.257,195.025,158.925C98.23,245.909,37.236,371.954,37.236,512C37.236,512,37.236,512,37.236,512" class="bicc-user-profile"/></font>
</defs>
</svg>
